October 19 2020

Algoexpert - Become an Expert in Algorithms


Algoexpert - Become an  Expert in Algorithms


Algoexpert - Become an Expert in Algorithms
WEBRip | English | MP4 | 1920 x 1080 | AVC ~313 kbps | 30 fps
AAC | 256 Kbps | 48.0 KHz | 2 channels | ~20 hours | 5.69 GB
Genre: eLearning Video / Development, Programming
65 videos explaining popular interview questions with solutions in jаvascript, Python, C ++, Java, and Go. Practice with popular questions. Topics range from string manipulation and graph traversal to dynamic programming and recursion.


In-depth complexity analysis using performance optimization methods and techniques.

What is AlgoExpert?

65 hand-selected questions

Interview Preparation is a number game that many candidates lose. We have selected 65 of the best interview questions to truly prepare you.

50+ hours of video explanations

Algorithms are hard to learn on paper. Each of our questions is accompanied by a two-part video explanation for maximum learning. This is more than 50 hours of content, all in your hands.

Solutions in 5 languages

Not everyone speaks the same programming language. We give you solutions for every question in 5 different languages: jаvascript, Python, C ++, Java and Go.

Difficulty analysis

Understanding how much memory the algorithm uses and how fast it works is extremely important. All of our explanations include a rigorous analysis of complexity.

Experience Tips

Algorithm interviews go beyond just algorithms and data structures. Our video series of interview tips give you important tips and tricks to help you stand out.

65 questions covering 14 categories.

If you want to go through a technical interview, knowledge of all common data structures and popular problem-solving methods is paramount. 65 questions covering 14 categories and 5 difficulty levels will help you with this.

Binary search trees
Binary trees
Linked Lists
Searching
Strings
Arrays
Stacks
Dynamic programming
Famous algorithms
Recursion
Sorting
Graphs
Heaps
Tries
Our videos set us apart

The truth is that the questions and algorithms in the interview are complex. It's even harder to try to understand the inner workings of a complex algorithm from a book or from a poorly thought-out video shot on your grandmother's camera. Our clear 1080p videos are crystal clear and strategically split into two parts to give you the most complete explanation of the issues. These are over 50 hours of content specifically designed to simplify interview questions and algorithms.

We speak 5 languages.

There is nothing more disappointing than opening a book to prepare for an interview, just finding a bunch of solutions in a programming language that you don't know. That's why all our questions come with complete written solutions in 5 popular languages.

jаvascript for all of you web developers
Python, for all of you, Data Scientists
C ++, for all of you old schoolchildren
Java, for all of you masochists
Go, for all of you Kool Kidz

General
Complete name : maxProfitWithKTransactions.mp4
Format : MPEG-4
Format profile : Base Media / Version 2
Codec ID : mp42 (mp42/mp41/isom/avc1)
File size : 199 MiB
Duration : 48 min 36 s
Overall bit rate mode : Variable
Overall bit rate : 573 kb/s
Encoded date : UTC 2017-07-27 04:17:39
Tagged date : UTC 2017-07-27 04:17:39

Video
ID : 1
Format : AVC
Format/Info : Advanced Video Codec
Format profile : [email protected]
Format settings : CABAC / 4 Ref Frames
Format settings, CABAC : Yes
Format settings, RefFrames : 4 frames
Format settings, GOP : M=4, N=90
Codec ID : avc1
Codec ID/Info : Advanced Video Coding
Duration : 48 min 36 s
Bit rate : 313 kb/s
Width : 1 920 pixels
Height : 1 080 pixels
Display aspect ratio : 16:9
Frame rate mode : Constant
Frame rate : 30.000 FPS
Color space : YUV
Chroma subsampling : 4:2:0
Bit depth : 8 bits
Scan type : Progressive
Bits/(Pixel*Frame) : 0.005
Stream size : 109 MiB (54%)
Writing library : x264 core 150 r10 df79067
Encoding settings : cabac=1 / ref=4 / deblock=1:0:0 / analyse=0x3:0x113 / me=hex / subme=8 / psy=1 / psy_rd=1.00:0.00 / mixed_ref=1 / me_range=16 / chroma_me=1 / trellis=2 / 8x8dct=1 / cqm=0 / deadzone=21,11 / fast_pskip=1 / chroma_qp_offset=-2 / threads=34 / lookahead_threads=5 / sliced_threads=0 / nr=0 / decimate=1 / interlaced=0 / bluray_compat=0 / stitchable=1 / constrained_intra=0 / bframes=3 / b_pyramid=2 / b_adapt=1 / b_bias=0 / direct=3 / weightb=1 / open_gop=0 / weightp=2 / keyint=infinite / keyint_min=30 / scenecut=40 / intra_refresh=0 / rc_lookahead=50 / rc=2pass / mbtree=1 / bitrate=313 / ratetol=1.0 / qcomp=0.60 / qpmin=5 / qpmax=69 / qpstep=4 / cplxblur=20.0 / qblur=0.5 / vbv_maxrate=5500 / vbv_bufsize=15000 / nal_hrd=none / filler=0 / ip_ratio=1.40 / aq=1:1.00
Encoded date : UTC 2017-07-27 04:17:39
Tagged date : UTC 2017-07-27 04:17:39
Color range : Limited
Color primaries : BT.709
Transfer characteristics : BT.709
Matrix coefficients : BT.709

Audio
ID : 2
Format : AAC
Format/Info : Advanced Audio Codec
Format profile : LC
Codec ID : mp4a-40-2
Duration : 48 min 36 s
Bit rate mode : Variable
Bit rate : 256 kb/s
Channel(s) : 2 channels
Channel positions : Front: L R
Sampling rate : 48.0 kHz
Frame rate : 46.875 FPS (1024 SPF)
Compression mode : Lossy
Stream size : 89.0 MiB (45%)
Encoded date : UTC 2017-07-27 04:17:39
Tagged date : UTC 2017-07-27 04:17:39

Buy Premium Account From My Download Links And Get Resumable Support & SUPER Fastest speed

rapidgator_net:
https://rapidgator.net/file/9b70592203c32b322eb4c3addc6616f7/jq6nd.Algoexpert..Become.an.Expert.in.Algorithms.part1.rar.html
https://rapidgator.net/file/d99b87e82937f4d282acf8e32e3fb238/jq6nd.Algoexpert..Become.an.Expert.in.Algorithms.part2.rar.html
https://rapidgator.net/file/e3b720ac2d5ce8896b47c296fcac8376/jq6nd.Algoexpert..Become.an.Expert.in.Algorithms.part3.rar.html
https://rapidgator.net/file/b104c8de5674e5940ca871a566135e69/jq6nd.Algoexpert..Become.an.Expert.in.Algorithms.part4.rar.html
https://rapidgator.net/file/e6befb63bddcea8452752ce6ea3bb4d9/jq6nd.Algoexpert..Become.an.Expert.in.Algorithms.part5.rar.html
https://rapidgator.net/file/3503ee88f15893a1b68f79d980d343f0/jq6nd.Algoexpert..Become.an.Expert.in.Algorithms.part6.rar.html

nitroflare_com:
https://nitroflare.com/view/21942B0A1F7A329/jq6nd.Algoexpert..Become.an.Expert.in.Algorithms.part1.rar
https://nitroflare.com/view/FF0A3922E959359/jq6nd.Algoexpert..Become.an.Expert.in.Algorithms.part2.rar
https://nitroflare.com/view/1465969EA8514FE/jq6nd.Algoexpert..Become.an.Expert.in.Algorithms.part3.rar
https://nitroflare.com/view/237040C79C34E79/jq6nd.Algoexpert..Become.an.Expert.in.Algorithms.part4.rar
https://nitroflare.com/view/CDE92D00949D990/jq6nd.Algoexpert..Become.an.Expert.in.Algorithms.part5.rar
https://nitroflare.com/view/8CCE0D8B0868F0F/jq6nd.Algoexpert..Become.an.Expert.in.Algorithms.part6.rar

alfafile_net:
http://alfafile.net/file/8QfyU/jq6nd.Algoexpert..Become.an.Expert.in.Algorithms.part1.rar
http://alfafile.net/file/8Qfyc/jq6nd.Algoexpert..Become.an.Expert.in.Algorithms.part2.rar
http://alfafile.net/file/8Qfyz/jq6nd.Algoexpert..Become.an.Expert.in.Algorithms.part3.rar
http://alfafile.net/file/8QfEK/jq6nd.Algoexpert..Become.an.Expert.in.Algorithms.part4.rar
http://alfafile.net/file/8QfEt/jq6nd.Algoexpert..Become.an.Expert.in.Algorithms.part5.rar
http://alfafile.net/file/8QfEp/jq6nd.Algoexpert..Become.an.Expert.in.Algorithms.part6.rar


Links are Interchangeable - No Password - Single Extraction

UploadGIG.com
Feel free to post your Algoexpert - Become an Expert in Algorithms Free Download, torrent, subtitles, free download, quality, NFO, Uploadgig, ul.to, Nitroflare, Rapidgator, Filejoker, Filefox, Turbobit, Keep2Share, Uploaded.net, 1fichier, Uptobox, Filefactory, Putlocker, mega.nz, ClicknUpload, WatchTVSeries, Mixdrop, Streamtape, GoogleDrive Watch HD Movies Series Stream Online, Algoexpert - Become an Expert in Algorithms Torrent Download, free premium downloads movie, game, mp3 download, crack, serial, keygen, or whatever-related comments here. use only English, Owners of this website aren't responsible for content of comments.

Related News

Add comment

  • bowtiesmilelaughingblushsmileyrelaxedsmirk
    heart_eyeskissing_heartkissing_closed_eyesflushedrelievedsatisfiedgrin
    winkstuck_out_tongue_winking_eyestuck_out_tongue_closed_eyesgrinningkissingstuck_out_tonguesleeping
    worriedfrowninganguishedopen_mouthgrimacingconfusedhushed
    expressionlessunamusedsweat_smilesweatdisappointed_relievedwearypensive
    disappointedconfoundedfearfulcold_sweatperseverecrysob
    joyastonishedscreamtired_faceangryragetriumph
    sleepyyummasksunglassesdizzy_faceimpsmiling_imp
    neutral_faceno_mouthinnocent
Support Warez-Serbia
You can support Warez-Serbia by buying a Uploadgig account. %75 of your payment goes to Warez-Serbia.

uploadgig

Uploadgig.com allows you to download as a premium user at Unlimited Speed!
Latest Releases
Recommended Filehosts