November 21 2020

Production-Grade TypeScript (2020)


Production-Grade  TypeScript (2020)


Production-Grade TypeScript
WEBRip | English | MP4 + Project Files | 1920 x 1080 | AVC ~858 kbps | 29.970 fps
AAC | 129 Kbps | 48.0 KHz | 2 channels | 5h 10mn | 2.09 GB
Genre: eLearning Video / Development, Programming

Learn to use the TypeScript language at scale to increase the developer experience and productivity of your teams! Work with declaration files and definitely typed, and learn to test pure type information. You'll build a Slack app with a data layer that balances performance and safety and includes automatic detection of API surface changes. By the end, you'll be able to manage even the most ambitious TypeScript projects with confidence and ease.

Content:

01. Introduction
02. Features
03. Project Implementation
04. API Extraction
05. Converting a Project to TypeScript
06. Tests & Linting
07. Wrapping Up

General
Complete name : 2- tsconfig.mp4
Format : MPEG-4
Format profile : Base Media
Codec ID : isom (isom/iso2/avc1/mp41)
File size : 121 MiB
Duration : 16 min 57 s
Overall bit rate : 996 kb/s
Writing application : Lavf58.29.100

Video
ID : 1
Format : AVC
Format/Info : Advanced Video Codec
Format profile : [email protected]
Format settings : 4 Ref Frames
Format settings, CABAC : No
Format settings, RefFrames : 4 frames
Codec ID : avc1
Codec ID/Info : Advanced Video Coding
Duration : 16 min 57 s
Bit rate : 858 kb/s
Width : 1 920 pixels
Height : 1 080 pixels
Display aspect ratio : 16:9
Frame rate mode : Constant
Frame rate : 29.970 (30000/1001) FPS
Color space : YUV
Chroma subsampling : 4:2:0
Bit depth : 8 bits
Scan type : Progressive
Bits/(Pixel*Frame) : 0.014
Stream size : 104 MiB (86%)

Audio
ID : 2
Format : AAC
Format/Info : Advanced Audio Codec
Format profile : LC
Codec ID : mp4a-40-2
Duration : 16 min 57 s
Bit rate mode : Constant
Bit rate : 129 kb/s
Channel(s) : 2 channels
Channel positions : Front: L R
Sampling rate : 48.0 kHz
Frame rate : 46.875 FPS (1024 SPF)
Compression mode : Lossy
Stream size : 15.7 MiB (13%)
Default : Yes
Alternate group : 1

Buy Premium Account From My Download Links And Get Resumable Support & SUPER Fastest speed

rapidgator_net:
https://rapidgator.net/file/5df8e9d19221c7a8921d20d80acfc9fc/lscpb.ProductionGrade.TypeScript.2020.rar.html

nitroflare_com:
https://nitroflare.com/view/555457FA67FD647/lscpb.ProductionGrade.TypeScript.2020.rar

uploadgig_com:
https://uploadgig.com/file/download/e7d1888e230fB434/lscpb.ProductionGrade.TypeScript.2020.rar


Links are Interchangeable - No Password - Single Extraction

UploadGIG.com
Feel free to post your Production-Grade TypeScript (2020) Free Download, torrent, subtitles, free download, quality, NFO, Uploadgig, ul.to, Nitroflare, Rapidgator, Filejoker, Filefox, Turbobit, Keep2Share, Uploaded.net, 1fichier, Uptobox, Filefactory, Putlocker, mega.nz, ClicknUpload, WatchTVSeries, Mixdrop, Streamtape, GoogleDrive Watch HD Movies Series Stream Online, free premium downloads movie, game, mp3 download, crack, serial, keygen, or whatever-related comments here. use only English, Owners of this website aren't responsible for content of comments.

Related News

Add comment

  • bowtiesmilelaughingblushsmileyrelaxedsmirk
    heart_eyeskissing_heartkissing_closed_eyesflushedrelievedsatisfiedgrin
    winkstuck_out_tongue_winking_eyestuck_out_tongue_closed_eyesgrinningkissingstuck_out_tonguesleeping
    worriedfrowninganguishedopen_mouthgrimacingconfusedhushed
    expressionlessunamusedsweat_smilesweatdisappointed_relievedwearypensive
    disappointedconfoundedfearfulcold_sweatperseverecrysob
    joyastonishedscreamtired_faceangryragetriumph
    sleepyyummasksunglassesdizzy_faceimpsmiling_imp
    neutral_faceno_mouthinnocent
Support Warez-Serbia
You can support Warez-Serbia by buying a Uploadgig account. %75 of your payment goes to Warez-Serbia.

uploadgig

Uploadgig.com allows you to download as a premium user at Unlimited Speed!
Latest Releases
Recommended Filehosts